Young Justice S03E04 720p DCU WEBRip x265 HEVC (ESUB) ENX265 torrent download

seeders: 721
leechers: 326
updated:
Added ago by ENX265 ***** in TV
Torrent Downloaded 10 times.
Info Hash: 5E2D222353FAA4F7BE99F8989BA4369E8ACB7ADA


Torrent Files

Young Justice S03E04 720p DCU WEBRip x265 HEVC (ESUB) - ENX265 (Size: 124.9 MB)
  Young Justice S03E04 720p DCU WEBRip x265 HEVC (ESUB) - ENX265 124.9 MB

Torrent Description





Please post your requests at

ENX265.Com

Soures : Young.Justice.S03E04.Private.Security.1080p.DCU.WEBRip.AAC2.0.H264-NTb - Thank

Download Sample
http://enx265.com/young-justice-2010-s03e04-720p-10bit-dcu-webrip/

Code:

General

Format : Matroska
Format version : Version 4
File size : 125 MiB
Duration : 21 min 10 s
Overall bit rate : 824 kb/s
Encoded date : UTC 2019-01-12 02:26:52
Writing application : mkvmerge v9.5.0 ('Quiet Fire') 64bit
Writing library : libebml v1.3.4 + libmatroska v1.4.5 / Lavf58.20.100

Video
ID : 1
Format : HEVC
Format/Info : High Efficiency Video Coding
Format profile : Main [email protected]@Main
Codec ID : V_MPEGH/ISO/HEVC
Duration : 21 min 10 s
Bit rate : 661 kb/s
Width : 1 280 pixels
Height : 720 pixels
Display aspect ratio : 16:9
Frame rate mode : Constant
Frame rate : 23.976 (24000/1001) FPS
Color space : YUV
Chroma subsampling : 4:2:0
Bit depth : 10 bits
Bits/(Pixel*Frame) : 0.030
Stream size : 100 MiB (80%)
Writing library : x265 2.9:[Windows][GCC 7.1.0][64 bit] 10bit
Default : Yes
Forced : No
Color range : Limited
Color primaries : BT.709
Transfer characteristics : BT.709
Matrix coefficients : BT.709

Audio
ID : 2
Format : AAC LC
Format/Info : Advanced Audio Codec Low Complexity
Codec ID : A_AAC-2
Duration : 21 min 10 s
Bit rate : 161 kb/s
Channel(s) : 2 channels
Channel layout : L R
Sampling rate : 48.0 kHz
Frame rate : 46.875 FPS (1024 SPF)
Compression mode : Lossy
Delay relative to video : -21 ms
Stream size : 24.4 MiB (20%)
Title : Stereo
Language : English
Default : Yes
Forced : No

Text
ID : 3
Format : ASS
Codec ID : S_TEXT/ASS
Codec ID/Info : Advanced Sub Station Alpha
Duration : 19 min 57 s
Bit rate : 140 b/s
Count of elements : 413
Compression mode : Lossless
Stream size : 20.5 KiB (0%)
Language : English
Default : No
Forced : No



Related Torrents

torrent name size age seed leech
255.6 MB 7 seconds 473 66
1.5 GB 7 seconds 270 105
267.6 MB 7 seconds 772 126
529.09 MB 3 minutes 761 435
6.82 GB 3 minutes 383 187

Sharing Widget


Download torrent
124.9 MB
seeders:1214
leechers:386
Young Justice S03E04 720p DCU WEBRip x265 HEVC (ESUB) - ENX265



To share this torrent use the code below and insert it into comments, status messages, forum posts or your signature.

Torrent: Young Justice S03E04 720p DCU WEBRip x265 HEVC (ESUB) - ENX265

Comments

Latest Searches