Once Upon a Time in Amritsar (2016) Punjabi 720p WEB Rip x264 AC3 5 1 ESub Sun George torrent download

seeders: 15
leechers: 84
updated:
Added ago by Sungeorge ***** in Movies
Torrent Downloaded 10 times.
Info Hash: 95A11C12DE38D2FE738C9BF32CC830369A3816CA


Torrent Files

Once Upon a Time in Amritsar (2016) Punjabi 720p WEB-Rip x264 AC3 5 1 ESub-Sun George (Size: 1.3 GB)
  Once Upon a Time in Amritsar (2016) Punjabi 720p WEB-Rip x264 AC3 5 1 ESub-Sun George 1.3 GB

Torrent Description



Once Upon a Time in Amritsar (2016) Punjabi 720p WEB-Rip x264 AC3 5.1 ESub-Sun George






http://www.imdb.com/title/tt5610172/









For Direct Links Visit: http://FilmMaza.Org














===================================================================


Source : Telly (Thanks)


General
Format : Matroska
Format version : Version 4 / Version 2
File size : 1.32 GiB
Duration : 1 h 50 min
Overall bit rate : 1 716 kb/s
Movie name : Once Upon a Time in Amritsar (2016) Punjabi 720p WEB-Rip x264 AC3 5.1 ESub-Sun George


===================================================================


Video
ID : 1
Format : AVC
Format/Info : Advanced Video Codec
Format profile : [email protected]
Format settings : CABAC / 4 Ref Frames
Format settings, CABAC : Yes
Format settings, RefFrames : 4 frames
Codec ID : V_MPEG4/ISO/AVC
Duration : 1 h 50 min
Bit rate : 1 500 kb/s
Width : 1 280 pixels
Height : 544 pixels
Display aspect ratio : 2.35:1
Frame rate mode : Variable
Frame rate : 25.000 FPS
Color space : YUV
Chroma subsampling : 4:2:0
Bit depth : 8 bits
Scan type : Progressive
Bits/(Pixel*Frame) : 0.086
Stream size : 1.15 GiB (87%)
Title : Sun George


===================================================================


Audio
ID : 2
Format : AC-3
Format/Info : Audio Coding 3
Codec ID : A_AC3
Duration : 1 h 50 min
Bit rate mode : Constant
Bit rate : 224 kb/s
Channel(s) : 6 channels
Channel positions : Front: L C R, Side: L R, LFE
Sampling rate : 48.0 kHz
Frame rate : 31.250 FPS (1536 SPF)
Bit depth : 16 bits
Compression mode : Lossy
Delay relative to video : 9 ms
Stream size : 177 MiB (13%)
Title : Punjabi- Sun George
Language : Panjabi
Service kind : Complete Main
Default : Yes
Forced : No

Text
ID : 3
Format : ASS
Codec ID : S_TEXT/ASS
Codec ID/Info : Advanced Sub Station Alpha
Duration : 1 h 47 min
Bit rate : 99 b/s
Count of elements : 1583
Compression mode : Lossless
Stream size : 78.2 KiB (0%)
Title : Sun George
Writing library : Lavc57.42.100 ssa
Language : English
Default : Yes
Forced : Yes



















Related Torrents

torrent name size age seed leech
3.8 MB 4 minutes 667 46
4.47 MB 4 minutes 163 129
1.3 GB 5 minutes 613 56
689.2 MB 5 minutes 680 215
277.1 MB 5 minutes 644 401

Sharing Widget


Download torrent
1.3 GB
seeders:1214
leechers:386
Once Upon a Time in Amritsar (2016) Punjabi 720p WEB-Rip x264 AC3 5 1 ESub-Sun George



To share this torrent use the code below and insert it into comments, status messages, forum posts or your signature.

Torrent: Once Upon a Time in Amritsar (2016) Punjabi 720p WEB-Rip x264 AC3 5 1 ESub-Sun George

Comments

Latest Searches