Colossal (2016) 720p H264 italian english Ac3 5 1 sub ita eng MIRCrew torrent download

seeders: 591
leechers: 64
updated:
Added ago by robbyrs ***** in Movies
Torrent Downloaded 10 times.
Info Hash: 96C97629D5E4108BEEA7712476268AFB6F63AA7E


Torrent Files

Colossal (2016) 720p H264 italian english Ac3-5 1 sub ita eng-MIRCrew (Size: 2.1 GB)
  Colossal (2016) 720p H264 italian english Ac3-5 1 sub ita eng-MIRCrew 2.1 GB

Torrent Description



Colossal (2016).720p.H264.italian.english.Ac3-5.1.sub.ita.eng-MIRCrew


NO FOUND ONLY ORIGINAL RELEASE



My release is always in double track audio italian and Original audio
for select it use VLC or dvd player home
not use wmp

Colossal (2016)

Quality MIRCrew on HD 720p da 2,2 gb







Titolo originale Colossal
Lingua originale inglese
Paese di produzione Canada, Spagna
Anno 2016
Durata 110 min
Genere fantascienza, commedia, thriller
Regia Nacho Vigalondo
Sceneggiatura Nacho Vigalondo



Anne Hathaway: Gloria
Jason Sudeikis: Oscar
Dan Stevens: Tim
Austin Stowell: Joel
Tim Blake Nelson: Garth



Gloria si rende conto che quando cammina attraverso il campo giochi, esattamente alle 8:05, fa sì che il mostro si manifesti e che i movimenti della creatura corrispondano con i suoi.



Gloria is an out-of-work party girl forced to leave her life in New York City and move back home. When reports surface that a giant creature is destroying Seoul, she gradually comes to the realization that she is somehow connected to this phenomenon. .









General
Unique ID : 204547541450867436918156429855391741079 (0x99E26C6B5AC8587C85DB6058A6FBF497)
Complete name : Colossal (2016).720p.h264.ita.eng.sub.ita.eng-MIRCrew\Colossal (2016).720p.h264.ita.eng.sub.ita.eng-MIRCrew.mkv
Format : Matroska
Format version : Version 2
File size : 2.12 GiB
Duration : 1h 49mn
Overall bit rate : 2 773 Kbps
Movie name : MIRCrew
Encoded date : UTC 2018-12-04 12:42:55
Writing application : mkvmerge v5.4.0 ('Piper') built on Mar 10 2012 13:34:39
Writing library : Lavf54.63.100
COMMENT : mircrew-releases

Video
ID : 1
Format : AVC
Format/Info : Advanced Video Codec
Format profile : [email protected]
Format settings, CABAC : Yes
Format settings, ReFrames : 2 frames
Codec ID : V_MPEG4/ISO/AVC
Duration : 1h 49mn
Bit rate : 1 900 Kbps
Width : 1 296 pixels
Height : 544 pixels
Display aspect ratio : 2.40:1
Frame rate mode : Variable
Frame rate : 23.976 fps
Color space : YUV
Chroma subsampling : 4:2:0
Bit depth : 8 bits
Scan type : Progressive
Bits/(Pixel*Frame) : 0.112
Stream size : 1.39 GiB (66%)
Title : MIRCrew
Writing library : x264 core 130 r2273
Encoding settings : cabac=1 / ref=2 / deblock=1:0:0 / analyse=0x1:0x131 / me=hex / subme=7 / psy=1 / psy_rd=1.00:0.00 / mixed_ref=0 / me_range=16 / chroma_me=1 / trellis=1 / 8x8dct=0 / cqm=0 / deadzone=21,11 / fast_pskip=1 / chroma_qp_offset=-2 / threads=6 / lookahead_threads=1 / sliced_threads=0 / nr=0 / decimate=1 / interlaced=0 / bluray_compat=0 / constrained_intra=0 / bframes=3 / b_pyramid=0 / b_adapt=1 / b_bias=0 / direct=3 / weightb=1 / open_gop=0 / weightp=2 / keyint=230 / keyint_min=23 / scenecut=40 / intra_refresh=0 / rc_lookahead=40 / rc=abr / mbtree=1 / bitrate=1900 / ratetol=1.0 / qcomp=0.60 / qpmin=10 / qpmax=69 / qpstep=4 / vbv_maxrate=24000 / vbv_bufsize=24000 / nal_hrd=none / ip_ratio=1.40 / aq=1:1.00
Language : Italian
Default : Yes
Forced : No
DURATION : 01:49:19.970000000
NUMBER_OF_FRAMES : 157282
NUMBER_OF_BYTES : 6908870944
_STATISTICS_WRITING_APP : mkvmerge v7.2.0 ('On Every Street') 64bit built on Sep 13 2014 15:52:10
_STATISTICS_WRITING_DATE_UTC : 2018-05-05 02:40:30
_STATISTICS_TAGS : BPS DURATION NUMBER_OF_FRAMES NUMBER_OF_BYTES

Audio #1
ID : 2
Format : AC-3
Format/Info : Audio Coding 3
Mode extension : CM (complete main)
Codec ID : A_AC3
Duration : 1h 49mn
Bit rate mode : Constant
Bit rate : 448 Kbps
Channel(s) : 6 channels
Channel positions : Front: L C R, Side: L R, LFE
Sampling rate : 48.0 KHz
Bit depth : 16 bits
Compression mode : Lossy
Delay relative to video : -14ms
Stream size : 350 MiB (16%)
Title : Ita Ac3 5.1
Language : Italian
Default : Yes
Forced : No

Audio #2
ID : 3
Format : AC-3
Format/Info : Audio Coding 3
Mode extension : CM (complete main)
Codec ID : A_AC3
Duration : 1h 49mn
Bit rate mode : Constant
Bit rate : 448 Kbps
Channel(s) : 6 channels
Channel positions : Front: L C R, Side: L R, LFE
Sampling rate : 48.0 KHz
Bit depth : 16 bits
Compression mode : Lossy
Delay relative to video : -42ms
Stream size : 350 MiB (16%)
Title : Eng Ac3 5.1
Language : English
Default : No
Forced : No

Menu
00:00:00.000 : :00:00:00.000
00:06:53.663 : :00:06:53.663
00:13:30.727 : :00:13:30.727
00:21:15.316 : :00:21:15.316
00:27:24.309 : :00:27:24.309
00:34:44.249 : :00:34:44.249
00:40:19.208 : :00:40:19.208
00:47:47.656 : :00:47:47.656
00:54:03.490 : :00:54:03.490
01:00:54.568 : :01:00:54.568
01:06:17.265 : :01:06:17.265
01:13:37.580 : :01:13:37.580
01:20:59.438 : :01:20:59.438
01:27:15.647 : :01:27:15.647
01:35:40.610 : :01:35:40.610
01:44:16.208 : :01:44:16.208



Related Torrents

torrent name size age seed leech
11.0 GB 1 minute 117 476
3.8 GB 5 minutes 384 199
1.6 GB 8 minutes 725 291
7.7 GB 8 minutes 220 153
874.2 MB 9 minutes 300 131

Sharing Widget


Download torrent
2.1 GB
seeders:1214
leechers:386
Colossal (2016) 720p H264 italian english Ac3-5 1 sub ita eng-MIRCrew



To share this torrent use the code below and insert it into comments, status messages, forum posts or your signature.

Torrent: Colossal (2016) 720p H264 italian english Ac3-5 1 sub ita eng-MIRCrew

Comments

Latest Searches